#TITLE:American Idiot;
#SUBTITLE:;
#ARTIST:GreenDay;
#TITLETRANSLIT:;
#SUBTITLETRANSLIT:;
#ARTISTTRANSLIT:;
#CREDIT:.;
#BANNER:Greenday-bn.JPG;
#BACKGROUND:Ad-bg.jpg;
#LYRICSPATH:;
#CDTITLE:cdtitle.png;
#MUSIC:Greenday - American Idiot.mp3;
#OFFSET:-1.800;
#SAMPLESTART:32.040;
#SAMPLELENGTH:20.660;
#SELECTABLE:YES;
#BPMS:0.000=186.000,256.000=93.000,258.000=186.000,353.000=372.000;
#STOPS:;
#BGCHANGES:;
// cache tags:
#FIRSTBEAT:4.000;
#LASTBEAT:354.000;
#SONGFILENAME:Songs/Music V.I.P ^_^/American Idiot/Greenday - American Idiot.sm;
#HASMUSIC:1;
#HASBANNER:1;
#MUSICLENGTH:118.256;
// end cache tags

//---------------dance-single - ----------------
#NOTES:
     dance-single:
     :
     Hard:
     15:
     1.000,1.000,1.000,0.178,1.000,874.000,131.000,21.000,0.000,12.000:
0000
0000
0000
0000
,
2100
0000
3101
0100
1100
0001
0000
1001
,
0100
0011
0000
0100
1010
0000
0101
0101
,
1010
0000
1001
0010
0100
0011
0000
0001
,
1010
0100
0000
0100
1010
0000
0101
0010
,
1010
0000
1100
0100
0010
0011
0000
0100
,
0101
1000
0000
0101
1010
0000
0011
0011
,
1020
1030
1000
1000
,
1000
1000
1000
1000
,
2000
0000
3101
0100
1010
0001
0000
0100
,
0110
1000
0000
1000
0010
0000
1010
1010
,
0201
0301
0001
0001
,
0001
0001
0001
0001
,
0002
0000
1013
0100
0011
0001
0000
0001
,
0110
1000
0000
1000
0110
0000
1100
1100
,
0102
0103
0100
0100
,
0100
0100
0100
0100
,
0200
0000
1301
0001
0010
0011
0000
0100
,
0011
0100
0000
1000
0011
0000
1001
1010
,
0210
0310
0010
0010
,
0010
0010
0010
0010
,
0020
0000
0131
1000
0110
1000
0000
1000
,
1010
0100
0000
0100
0101
0000
1100
1100
,
0010
0100
0001
0000
0100
0010
0100
1000
0010
0100
0001
0100
1000
0100
0001
0010
,
0100
1000
0100
0010
0001
0100
1000
0010
0001
0100
0010
0100
1000
0001
0100
0001
,
0010
0000
0000
0100
0000
0000
0010
0000
0000
0001
0000
0000
1000
0000
0100
0000
0010
0000
0001
0000
0000
0100
0000
0000
0010
0000
0000
1000
0000
0000
0001
0000
0000
0100
0000
0000
0001
0000
0000
0010
0000
0000
0100
0000
0000
1000
0000
0000
,
0010
0001
0100
1000
0010
1000
0010
0100
1000
0010
0001
0100
0010
1000
0001
0100
,
1000
0010
0001
0010
0100
0010
1000
0100
1000
0100
0010
0001
0010
0100
0010
0100
,
0001
1000
0010
1000
0100
0001
0010
0100
0010
1000
0010
0100
0001
0100
0001
1000
,
0010
0000
0000
1000
0000
0000
0001
0000
0000
0100
0000
0000
0001
0000
0010
0000
0100
0000
1000
0000
0000
0001
0000
0000
0010
0000
0000
1000
0000
0000
0001
0000
0000
0010
0000
0000
0100
0000
0000
0010
0000
0000
1000
0000
0000
0010
0000
0000
,
0001
0100
1000
0100
0010
0001
0100
1000
0001
0100
0001
0000
0001
0000
1001
0100
,
0011
0000
0010
0000
0010
0100
1000
0100
0010
1000
0100
0001
0010
1000
0010
0100
,
0001
0010
1000
0100
0010
0001
0100
1000
0010
0001
0100
0010
0001
0010
1000
0010
,
0100
0000
0000
0001
0000
0000
1000
0000
0000
0100
0000
0000
1000
0000
0001
0000
0010
0000
0100
0000
0000
1000
0000
0000
0010
0000
0000
0100
0000
0000
1000
0000
0000
0010
0000
0000
0001
0000
0000
1000
0000
0000
0010
0000
0000
0001
0000
0000
,
0100
0010
0001
0010
1000
0100
0010
0100
0001
0010
1000
0100
0001
0100
1000
0010
,
0100
0000
0000
0010
0000
0000
1000
0000
0000
0001
0000
0000
0010
0000
0100
0000
1000
0000
0010
0000
0000
0001
0000
0000
0100
0000
0000
0001
0000
0000
0100
0000
0000
0010
0000
0000
0100
0000
0000
1000
0000
0000
0010
0000
0000
1000
0000
0000
,
0010
0100
0001
0100
0001
1000
0010
0100
1000
0100
1000
0010
0001
0010
0100
0001
,
1000
0001
0100
1000
0011
0000
1010
0000
0100
0000
0001
0010
1100
0000
0100
0000
,
0001
0000
0010
0000
1000
0000
0100
1000
0101
0000
1000
0000
0010
0000
0100
0000
,
0012
0000
1103
0010
0101
0010
0000
1001
,
0010
1100
0000
0100
1010
0000
0101
0101
,
1010
0000
1100
0010
0101
1000
0000
0010
,
1100
0010
0000
0010
1100
0000
0110
0110
,
1002
0000
0113
0010
0011
1010
0000
1010
,
0001
0110
0000
0101
1010
0000
0011
0011
,
1010
0000
0101
1001
0100
0010
0000
0010
,
1100
0000
0001
0000
0000
0000
0001
0000
1010
0000
0000
0000
0100
0010
0100
0001
,
0010
1000
0100
0001
0010
1000
0100
1000
0001
0100
0010
0100
1000
0100
0001
0100
,
1000
0001
0100
1000
0010
0100
0001
0010
1000
0010
0100
1000
0100
0010
0001
0100
,
0010
1000
0001
0010
0001
0100
1000
0001
1000
0100
0001
1000
0100
0010
0001
0100
,
0010
0100
0001
0100
1000
0001
0100
1000
0100
0010
1000
0010
0001
1000
0100
0010
,
0100
0010
0001
0100
1000
0010
0001
1000
0100
1000
0001
0010
0001
0100
1000
0010
,
0001
0010
0001
1000
0010
1000
0001
0100
0010
0100
0001
0010
0001
0100
1000
0100
,
0010
0000
0010
0001
0110
0000
0010
0000
1010
0000
1000
0000
0100
0000
0001
0000
,
0010
0000
0100
0010
1001
0000
0100
0000
0011
0000
0001
0000
0100
0000
1000
0000
,
0012
0000
0000
0000
1013
0000
0100
0000
0010
0000
1000
0100
1010
0000
0100
0000
,
0110
0000
0100
0000
0001
0000
0100
0000
0010
0000
0001
0100
1010
0000
1000
0000
,
0002
0000
0013
0100
0001
0010
1100
0100
,
0001
0000
0100
0000
0010
0000
1000
0000
0100
0000
1000
0100
0011
0000
1000
0000
,
0002
0000
0013
0001
1000
0100
0100
0100
,
0001
0000
0010
0100
1001
0000
0100
0000
0010
0000
0100
0000
1000
0000
0100
0000
,
0002
0000
0013
0001
0010
0100
0010
1000
,
0100
0000
0001
0010
0101
0000
0010
0000
1000
0000
0100
0000
0010
0000
0100
0000
,
1002
0003
0000
0000
,
0000
0000
0000
0000
0000
0000
0000
0000
0002
0000
0000
0000
1103
0010
0001
0100
,
1000
0010
0100
0010
1000
0001
0010
0100
1000
0010
0001
0100
0010
0100
1000
0000
,
0010
0000
0000
0100
0000
0000
0001
0000
0000
0100
0000
0000
0010
0000
0000
1000
0000
0000
0100
0000
0000
0001
0000
0000
0010
0000
0000
0001
0000
0000
0100
0000
0000
0010
0000
0000
1000
0000
0100
0000
0010
0000
0001
0000
0000
0100
0000
0000
,
1000
0100
0001
0100
1000
0010
0001
0100
0010
0001
1000
0001
0010
0100
0010
0001
,
0010
0000
0000
1000
0000
0000
0001
0000
0000
0010
0000
0000
1000
0000
0000
0010
0000
0000
0100
0000
0000
0001
0000
0000
0100
0000
0000
1000
0000
0000
0100
0000
0000
0010
0000
0000
0001
0000
0010
0000
0100
0000
1000
0000
0000
0010
0000
0000
,
0001
0100
1000
0100
0001
0100
0001
0010
0100
0010
1000
0010
0100
0001
0100
0010
,
1000
0000
0000
0100
0000
0000
0010
0000
0000
1000
0000
0000
0010
0000
0000
0100
0000
0000
0001
0000
0000
0010
0000
0000
0001
0000
0000
0100
0000
0000
1000
0000
0000
0100
0000
0000
0001
0000
0010
0000
0100
0000
1000
0000
0000
0001
0000
0000
,
0010
0001
1000
0010
0001
0100
1000
0010
0100
0010
0001
0100
0010
0100
1000
0010
,
0001
0000
0000
0000
0000
0000
1000
0000
0000
0000
0000
0000
1000
0000
0000
0000
0000
0000
1001
0000
0000
0010
0000
0000
1100
0000
0000
0000
0000
0000
1001
0000
0000
0000
0000
0000
1000
0000
0001
0000
0010
0000
0100
0000
0000
0010
0000
0000
,
0001
1000
0100
0001
0010
0100
0001
0010
1000
0100
0010
0100
0001
0100
0010
1000
,
0001
0000
0000
0100
0000
0000
0010
0000
0000
0001
0000
0000
1000
0000
0000
0100
0000
0000
0010
0000
0000
1000
0000
0000
0010
0000
0000
0001
0000
0000
0100
0000
0000
0010
0000
0000
1000
0000
0100
0000
0010
0000
0001
0000
0000
0010
0000
0000
,
0100
0000
1001
0100
0001
0010
1000
0100
0010
1000
0001
0100
0010
1000
0100
0001
,
0010
0000
0000
1000
0000
0000
0100
0000
0000
1000
0000
0000
0010
0000
0000
0100
0000
0000
0010
0000
0000
0001
0000
0000
0100
0000
0000
1000
0000
0000
0010
0000
0000
0001
0000
0000
0010
0000
1000
0000
0100
0000
0010
0000
0000
0001
0000
0000
,
0010
0100
1000
0010
0100
0001
0010
1000
0100
0001
0100
1000
0010
0100
0010
0100
,
1000
0010
0100
0001
0100
1000
0100
0010
1000
0001
0100
0010
1001
0000
0100
0000
,
0001
0000
0100
0000
1000
0000
0100
0000
0010
0000
1000
0100
0011
0000
0100
0000
,
1001
0010
0100
0010
0002
0000
1103
0010
,
1010
0100
0000
0001
1010
0100
0000
0100
,
1010
0000
0101
0101
1010
0000
0100
0100
,
1010
0100
0000
0001
0011
0001
0000
0001
,
0101
0000
1001
0010
2100
0000
3101
0010
,
1001
0100
0000
0100
1001
0100
0000
0100
,
1010
0000
1010
0100
2001
0000
3101
0000
,
1001
0000
0101
0000
1001
0000
0101
0010
,
1001
0010
0002
0000
0003
0000
0000
0000
;

//---------------dance-single - ----------------
#NOTES:
     dance-single:
     :
     Medium:
     1:
     0.000,0.000,0.000,0.000,0.000,0.000,0.000,0.000,0.000,0.000:
0000
0000
0000
0000
;

//---------------dance-single - ----------------
#NOTES:
     dance-single:
     :
     Easy:
     1:
     0.000,0.000,0.000,0.000,0.000,0.000,0.000,0.000,0.000,0.000:
0000
0000
0000
0000
;
